Warning! Do NOT Download Without a VPN!
Your IP Address is 37.1.205.15.   Location is Netherlands
Your Internet Provider and Government can track your download activities! Hide your IP ADDRESS with a VPN!
We strongly recommend using a VPN service to anonymize your torrent downloads. It's FREE!
START YOUR FREE TRIAL NOW!

Bird Box (2018) X 1598 (2160p) HDR 5 1 X265 10bit Phun Psyz

Torrent Details

Bird Box (2018) x 1598 (2160p) HDR 5 1 x265 10bit Phun Psyz

NAME
Bird Box (2018) x 1598 (2160p) HDR 5 1 x265 10bit Phun Psyz.torrent
CATEGORY
Movies
INFOHASH
d5db0924f3060f8e87dd2c4aeffb1cdc1cbced5f
SIZE
3.5 GB in 1 file
ADDED
Uploaded on 30-12-2018 by our crawler pet called "Spidey".
SWARM
0 seeders & 0 peers
RATING
No votes yet.

Please login to vote for this torrent.


Description

www.imdb.com/title/tt2737304/

A woman and a pair of children are blindfolded and make their way through a dystopian setting.

Source: DEFLATE







Format : Matroska
Format version : Version 4 / Version 2
File size : 3.53 GiB
Duration : 2 h 3 min
Overall bit rate : 4 081 kb/s

Video
ID : 1
Format : HEVC
Format/Info : High Efficiency Video Coding
Format profile : Main [email protected]@High
Codec ID : V_MPEGH/ISO/HEVC
Duration : 2 h 3 min
Bit rate : 3 680 kb/s
Width : 3 840 pixels
Height : 1 598 pixels
Display aspect ratio : 2.40:1
Frame rate mode : Constant
Frame rate : 24.000 FPS
Color space : YUV
Chroma subsampling : 4:2:0
Bit depth : 10 bits
Bits/(Pixel*Frame) : 0.025
Stream size : 3.18 GiB (90%)
Writing library : x265 2.6:[Windows][GCC 7.3.0][64 bit] 10bit

Audio
ID : 2
Format : AC-3
Format/Info : Audio Coding 3
Commercial name : Dolby Digital
Codec ID : A_AC3
Duration : 2 h 3 min
Bit rate mode : Constant
Bit rate : 320 kb/s
Channel(s) : 6 channels
Channel layout : L R C LFE Ls Rs
Sampling rate : 48.0 kHz
Frame rate : 31.250 FPS (1536 SPF)
Bit depth : 16 bits
Compression mode : Lossy
Stream size : 283 MiB (8%)
Title : Surround
Language : English

Text
Language : English
Language : English
Language : Arabic
Language : Bulgarian
Language : Chinese
Language : Chinese
Language : Danish
Language : Dutch
Language : Finnish
Language : French
Language : German
Language : Greek
Language : Italian
Language : Japanese
Language : Korean
Language : Norwegian
Language : Polish
Language : Portuguese
Language : Portuguese
Language : Romanian
Language : Russian
Language : Spanish
Language : Spanish
Language : Swedish
Language : Thai
Language : Turkish
Default : No
Forced : No

Discussion

Comments 0

Post Your Comment

Files in this torrent

FILENAMESIZE
Bird Box (2018) x 1598 (2160p) HDR 5.1 x265 10bit Phun Psyz.mkv3.5 GB

Alternative Torrents for 'Bird Box HDR bit Phun Psyz'.

TORRENT NAME ADDED SIZE SEEDS PEERS HEALTH
1/6/2019 9.3 GB 171 26
1/13/2019 20.8 GB 137 35
1/15/2019 456 MB 120 45
1/6/2019 2 GB 107 15
1/15/2019 163 MB 75 36
1/7/2019 7.8 GB 73 18
1/10/2019 669 MB 73 16
1/11/2019 1 GB 72 41
1/7/2019 14.5 GB 70 30
1/10/2019 3.4 GB 59 20
1/13/2019 15.7 GB 58 10
1/9/2019 9.5 GB 51 20
1/15/2019 108 MB 51 17
1/8/2019 7.2 GB 50 12
1/11/2019 786 MB 49 5
Dora the Explorer | Just Dance 4 (Xbox 360) | Скачать APK