Warning! Do NOT Download Without a VPN!
Your IP Address is 37.1.205.15.   Location is Netherlands
Your Internet Provider and Government can track your download activities! Hide your IP ADDRESS with a VPN!
We strongly recommend using a VPN service to anonymize your torrent downloads. It's FREE!
START YOUR FREE TRIAL NOW!

Bird Box 2018 720p WEBRip X264

Torrent Details

Bird Box 2018 720p WEBRip x264

NAME
Bird Box 2018 720p WEBRip x264.torrent
CATEGORY
Movies
INFOHASH
00086eddcdae2b444ee0034a9eb7565e161de896
SIZE
1.4 GB in 2 files
ADDED
Uploaded on 28-12-2018 by our crawler pet called "Spidey".
SWARM
0 seeders & 0 peers
RATING
No votes yet.

Please login to vote for this torrent.


Description

Quote:



******************************Thumbnail:**********************







******************************Screenshots:********************



Screenshot 1



Screenshot 2



Screenshot 3



Screenshot 4



Screenshot 5



Screenshot 6



Screenshot 7



Screenshot 8



Screenshot 9



Screenshot 0



******************************************************



Bird.Box.2018.720p.WEBRip.x264.LLG.mp4

Format                                   : MPEG-4

Format profile                           : Base Media

Codec ID                                 : isom (isom/iso2/avc1/mp41)

File size                                : 1.38 GiB

Duration                                 : 2 h 3 min

Overall bit rate mode                    : Variable

Overall bit rate                         : 1 598 kb/s

Writing application                      : Lavf57.83.100



Video

ID                                       : 1

Format                                   : AVC

Format/Info                              : Advanced Video Codec

Format profile                           : [email protected]

Format settings                          : CABAC / 1 Ref Frames

Format settings, CABAC                   : Yes

Format settings, RefFrames               : 1 frame

Codec ID                                 : avc1

Codec ID/Info                            : Advanced Video Coding

Duration                                 : 2 h 3 min

Bit rate mode                            : Variable

Bit rate                                 : 1 465 kb/s

Maximum bit rate                         : 4 500 kb/s

Width                                    : 1 280 pixels

Height                                   : 532 pixels

Display aspect ratio                     : 2.40:1

Original display aspect ratio            : 2.40:1

Frame rate mode                          : Constant

Frame rate                               : 24.000 FPS

Color space                              : YUV

Chroma subsampling                       : 4:2:0

Bit depth                                : 8 bits

Scan type                                : Progressive

Bits/(Pixel*Frame)                       : 0.090

Stream size                              : 1.27 GiB (92%)

Codec configuration box                  : avcC



Audio

ID                                       : 2

Format                                   : AAC LC

Codec ID                                 : mp4a-40-2

Duration                                 : 2 h 3 min

Bit rate mode                            : Constant

Bit rate                                 : 128 kb/s

Channel(s)                               : 2 channels

Channel layout                           : L R

Sampling rate                            : 48.0 kHz

Frame rate                               : 46.875 FPS (1024 SPF)

Compression mode                         : Lossy

Stream size                              : 114 MiB (8%)

Default                                  : Yes

Alternate group                          : 1







********************************************************

Discussion

Comments 0

Post Your Comment

Files in this torrent

FILENAMESIZE
Bird.Box.2018.720p.WEBRip.x264.LLG.mp41.4 GB
SAMPLE.mp49.1 MB

Alternative Torrents for 'Bird Box'.

TORRENT NAME ADDED SIZE SEEDS PEERS HEALTH
1/6/2019 2 GB 107 15
1/11/2019 1 GB 72 41
1/8/2019 1.5 GB 34 10
1/7/2019 3.5 GB 26 10
1/6/2019 2.8 GB 14 6
1/7/2019 251 MB 8 1
1/8/2019 5.6 GB 7 10
11/19/2013 19 MB 0 0
10/25/2015 1 MB 0 0
11/4/2015 13 MB 0 0
2/14/2018 933 MB 0 0
12/16/2018 1.4 GB 0 0
12/16/2018 4.5 GB 0 0
12/16/2018 1.4 GB 0 0
12/16/2018 4.5 GB 0 0
Miss Monochrome: The Animation 3 | Novelas Amar a muerte 1x30 | DR., Mi.-Nr. 540 y b, postfrisch, Befund Schlegel.