Warning! Do NOT Download Without a VPN!
Your IP Address is 37.1.205.15.   Location is Netherlands
Your Internet Provider and Government can track your download activities! Hide your IP ADDRESS with a VPN!
We strongly recommend using a VPN service to anonymize your torrent downloads. It's FREE!
START YOUR FREE TRIAL NOW!

Simmba 2018 Hindi 720p PRE-DVDRip X264 AAC

Torrent Details

Simmba 2018 Hindi 720p PRE-DVDRip x264 AAC

NAME
Simmba 2018 Hindi 720p PRE-DVDRip x264 AAC.torrent
CATEGORY
Movies
INFOHASH
cce4c442e70e505c77e4a6af14b049a48ced1205
SIZE
1.5 GB in 5 files
ADDED
Uploaded on 28-12-2018 by our crawler pet called "Spidey".
SWARM
0 seeders & 0 peers
RATING
No votes yet.

Please login to vote for this torrent.


Description

Simmba 2018 Hindi 720p PRE-DVDRip x264 AAC { TaRa }.mkv

========================
General
Complete name : Simmba 2018 Hindi 720p PRE-DVDRip x264 AAC { TaRa }.mkv
Format : Matroska
Format version : Version 4
File size : 1.48 GiB
Duration : 2 h 41 min
Overall bit rate : 1 307 kb/s========================
Video
ID : 1
Format : AVC
Format/Info : Advanced Video Codec
Format profile : [email protected]
Format settings : 2 Ref Frames
Format settings, CABAC : No
Format settings, ReFrames : 2 frames
Codec ID : V_MPEG4/ISO/AVC
Duration : 2 h 41 min
Bit rate : 1 200 kb/s
Width : 1 280 pixels
Height : 720 pixels
Display aspect ratio : 16:9
Frame rate mode : Variable
Frame rate : 24.000 FPS
Color space : YUV
Chroma subsampling : 4:2:0
Bit depth : 8 bits
Scan type : Progressive
Bits/(Pixel*Frame) : 0.054
Stream size : 1.35 GiB (92%)
Title : .....::::: TaRa :::::.....
Language : Hindi
Default : Yes
Forced : No========================
Audio
ID : 2
Format : AAC LC
Format/Info : Advanced Audio Codec Low Complexity
Codec ID : A_AAC-2
Duration : 2 h 41 min
Bit rate : 108 kb/s
Channel(s) : 2 channels
Channel layout : L R
Sampling rate : 44.1 kHz
Frame rate : 43.066 FPS (1024 SPF)
Compression mode : Lossy
Delay relative to video : -23 ms
Stream size : 125 MiB (8%)
Title : .....::::: TaRa :::::.....
Language : Hindi
Default : Yes
Forced : No========================





























Discussion

Comments 0

Post Your Comment

Files in this torrent

FILENAMESIZE
DtmPVtJWkAE6FO8.jpg237.6 KB
maxresdefault (4).jpg201.7 KB
Simmba 2018 Hindi 720p PRE-DVDRip x264 AAC { TaRa }.mkv1.5 GB
Torrent TaRa Digital Team PC Info.nfo6.5 KB
Torrent TaRa Digital Team.txt639 B

Alternative Torrents for 'Simmba Hindi PRE-DVDRip AAC'.

TORRENT NAME ADDED SIZE SEEDS PEERS HEALTH
1/2/2019 1.3 GB 55 7
12/29/2018 1.2 GB 0 0
12/29/2018 1002 MB 0 0
12/30/2018 1.1 GB 0 0
1/2/2019 1.2 GB 0 0
Microbiology Baveja Pdf Free Download.pdf | Generic (23033) | Aquaman 2018