Warning! Do NOT Download Without a VPN!
Your IP Address is 37.1.205.15.   Location is Netherlands
Your Internet Provider and Government can track your download activities! Hide your IP ADDRESS with a VPN!
We strongly recommend using a VPN service to anonymize your torrent downloads. It's FREE!
START YOUR FREE TRIAL NOW!

Aquaman 2018 720p PROPER HD-TC HQ X264

Torrent Details

Aquaman 2018 720p PROPER HD-TC HQ X264

NAME
Aquaman 2018 720p PROPER HD-TC HQ X264.torrent
CATEGORY
Movies
INFOHASH
4433b2515054b1ba1c9f88f9767b52c83957b19d
SIZE
1.5 GB in 2 files
ADDED
Uploaded on 20-12-2018 by our crawler pet called "Spidey".
SWARM
0 seeders & 0 peers
RATING
No votes yet.

Please login to vote for this torrent.


Description

Quote:



******************************Thumbnail:**********************







******************************Screenshots:********************



Screenshot 1



Screenshot 2



Screenshot 3



Screenshot 4



Screenshot 5



Screenshot 6



Screenshot 7



Screenshot 8



Screenshot 9



Screenshot 0





******************************************************



Aquaman 2018 720p.PROPER.HD-TC.HQ.X264.LLG.mp4

Format                                   : MPEG-4

Format profile                           : Base Media

Codec ID                                 : isom (isom/iso2/avc1/mp41)

File size                                : 1.47 GiB

Duration                                 : 2 h 11 min

Overall bit rate mode                    : Variable





Video

ID                                       : 1

Format                                   : AVC

Format/Info                              : Advanced Video Codec

Format profile                           : [email protected]

Format settings                          : CABAC / 1 Ref Frames

Format settings, CABAC                   : Yes

Format settings, RefFrames               : 1 frame

Codec ID                                 : avc1

Codec ID/Info                            : Advanced Video Coding

Duration                                 : 2 h 11 min

Bit rate mode                            : Variable

Bit rate                                 : 1 470 kb/s

Maximum bit rate                         : 4 500 kb/s

Width                                    : 1 280 pixels

Height                                   : 568 pixels

Display aspect ratio                     : 2.25:1

Frame rate mode                          : Constant

Frame rate                               : 25.000 FPS

Color space                              : YUV

Chroma subsampling                       : 4:2:0

Bit depth                                : 8 bits

Scan type                                : Progressive

Bits/(Pixel*Frame)                       : 0.081

Stream size                              : 1.35 GiB (92%)





Audio

ID                                       : 2

Format                                   : AAC LC

Format/Info                              : Advanced Audio Codec Low Complexity

Codec ID                                 : mp4a-40-2

Duration                                 : 2 h 11 min

Bit rate mode                            : Constant

Bit rate                                 : 129 kb/s

Channel(s)                               : 2 channels

Channel layout                           : L R

Sampling rate                            : 48.0 kHz

Frame rate                               : 46.875 FPS (1024 SPF)

Compression mode                         : Lossy

Stream size                              : 121 MiB (8%)

Language                                 : English

Default                                  : Yes







******************************************************

Discussion

Comments 0

Post Your Comment

Files in this torrent

FILENAMESIZE
Aquaman 2018 720p.PROPER.HD-TC.HQ.X264.LLG.mp41.5 GB
SAMPLE.mp423.6 MB

Alternative Torrents for 'Aquaman PROPER HD-TC HQ'.

TORRENT NAME ADDED SIZE SEEDS PEERS HEALTH
12/18/2018 2.9 GB 0 0
12/18/2018 2.9 GB 0 0
12/18/2018 2.4 GB 0 0
12/18/2018 1.1 GB 0 0
12/18/2018 1.1 GB 0 0
12/18/2018 2.4 GB 0 0
12/18/2018 716 MB 0 0
O Grande Gatsby (The Great Gatsby) 2013 | The Gallows | Medikamente von Apothekern