Warning! Do NOT Download Without a VPN!
Your IP Address is 37.1.205.15.   Location is Netherlands
Your Internet Provider and Government can track your download activities! Hide your IP ADDRESS with a VPN!
We strongly recommend using a VPN service to anonymize your torrent downloads. It's FREE!
START YOUR FREE TRIAL NOW!

Andhadhun 2018 Hindi 720p WEB-DL X264 AAC

Torrent Details

Andhadhun 2018 Hindi 720p WEB-DL x264 AAC

NAME
Andhadhun 2018 Hindi 720p WEB-DL x264 AAC.torrent
CATEGORY
Movies
INFOHASH
b8d8b2fa40c3a0e87902d0bab10aa87138ce2e18
SIZE
1.4 GB in 6 files
ADDED
Uploaded on 18-12-2018 by our crawler pet called "Spidey".
SWARM
0 seeders & 0 peers
RATING
No votes yet.

Please login to vote for this torrent.


Description

Andhadhun 2018 Hindi 720p WEB-DL x264 AAC { TaRa }.mkv

========================
General
Complete name : Andhadhun 2018 Hindi 720p WEB-DL x264 AAC { TaRa }.mkv
Format : Matroska
Format version : Version 4
File size : 1.36 GiB
Duration : 2 h 17 min
Overall bit rate : 1 412 kb/s========================
Video
ID : 1
Format : AVC
Format/Info : Advanced Video Codec
Format profile : [email protected]
Format settings : CABAC / 4 Ref Frames
Format settings, CABAC : Yes
Format settings, ReFrames : 4 frames
Codec ID : V_MPEG4/ISO/AVC
Duration : 2 h 17 min
Bit rate : 1 250 kb/s
Width : 1 280 pixels
Height : 544 pixels
Display aspect ratio : 2.35:1
Frame rate mode : Constant
Frame rate : 24.000 FPS
Color space : YUV
Chroma subsampling : 4:2:0
Bit depth : 8 bits
Scan type : Progressive
Bits/(Pixel*Frame) : 0.075
Stream size : 1.17 GiB (86%)
Title : .....::::: TaRa ::::::.....
Language : Hindi
Default : Yes
Forced : No========================
Audio
ID : 2
Format : AAC LC
Format/Info : Advanced Audio Codec Low Complexity
Codec ID : A_AAC-2
Duration : 2 h 17 min
Bit rate : 192 kb/s
Channel(s) : 6 channels
Channel layout : C L R Ls Rs LFE
Sampling rate : 48.0 kHz
Frame rate : 46.875 FPS (1024 SPF)
Compression mode : Lossy
Stream size : 189 MiB (14%)
Title : .....::::: TaRa ::::::.....
Language : Hindi
Default : Yes
Forced : No========================






























Discussion

Comments 0

Post Your Comment

Files in this torrent

FILENAMESIZE
58f4b5d52e35cc08.jpg144.4 KB
96245c69898165.5.jpg476.3 KB
Andhadhun 2018 Hindi 720p WEB-DL x264 AAC { TaRa }.mkv1.4 GB
AndhaDhun-Poster.jpg340.4 KB
Torrent TaRa Digital Team PC Info.nfo6.5 KB
Torrent TaRa Digital Team.txt639 B

Alternative Torrents for 'Andhadhun Hindi AAC'.

TORRENT NAME ADDED SIZE SEEDS PEERS HEALTH
10/6/2018 699 MB 0 0
10/6/2018 705 MB 0 0
10/6/2018 1.4 GB 0 0
10/6/2018 1.5 GB 0 0
10/6/2018 1.5 GB 0 0
10/6/2018 488 MB 0 0
10/6/2018 1 GB 0 0
10/6/2018 699 MB 0 0
10/6/2018 1 GB 0 0
10/6/2018 952 MB 0 0
10/8/2018 557 MB 0 0
10/10/2018 1.5 GB 0 0
10/24/2018 699 MB 0 0
11/12/2018 699 MB 0 0
11/16/2018 1.4 GB 0 0
Cặp Học Sinh Tiger Family In Hình Bướm 11128B - Chống Lệch Vai Và Gù Lưng, Trên 6 Tuổi | The Surrogate Woman | Musical Instruments (Pre-1930)