Warning! Do NOT Download Without a VPN!
Your IP Address is 37.1.205.15.   Location is Netherlands
Your Internet Provider and Government can track your download activities! Hide your IP ADDRESS with a VPN!
We strongly recommend using a VPN service to anonymize your torrent downloads. It's FREE!
START YOUR FREE TRIAL NOW!

A Star Is Born 2018 1080p HC HDRip X264 [MW]

Torrent Details

A Star is Born 2018 1080p HC HDRip x264 [MW]

NAME
A Star is Born 2018 1080p HC HDRip x264 [MW].torrent
CATEGORY
Movies
INFOHASH
763c26b20e98d575e8465b4bd83aaa903c8093bb
SIZE
2.1 GB in 1 file
ADDED
Uploaded on 25-11-2018 by our crawler pet called "Spidey".
SWARM
0 seeders & 0 peers
RATING
No votes yet.

Please login to vote for this torrent.


Description

General
Format : Matroska
Format version : Version 4 / Version 2
File size : 2.12 GiB
Duration : 2 h 15 min
Overall bit rate : 2 233 kb/s

Video
ID : 1
Format : AVC
Format/Info : Advanced Video Codec
Format profile : [email protected]
Format settings : CABAC / 4 Ref Frames
Format settings, CABAC : Yes
Format settings, RefFrames : 4 frames
Codec ID : V_MPEG4/ISO/AVC
Duration : 2 h 15 min
Bit rate : 2 000 kb/s
Width : 1 920 pixels
Height : 800 pixels
Display aspect ratio : 2.40:1
Frame rate mode : Constant
Frame rate : 30.000 FPS
Color space : YUV
Chroma subsampling : 4:2:0
Bit depth : 8 bits
Scan type : Progressive
Bits/(Pixel*Frame) : 0.043
Stream size : 1.87 GiB (88%)
Writing library : x264 core 155 r2901 7d0ff22
Default : Yes
Forced : No

Audio
ID : 2
Format : AAC
Format/Info : Advanced Audio Codec
Format profile : LC
Codec ID : A_AAC-2
Duration : 2 h 15 min
Bit rate : 256 kb/s
Channel(s) : 2 channels
Channel positions : Front: L R
Sampling rate : 48.0 kHz
Frame rate : 46.875 FPS (1024 SPF)
Compression mode : Lossy
Stream size : 249 MiB (11%)
Language : English
Default : Yes
Forced : No


Click To View Image







Discussion

Comments 0

Post Your Comment

Files in this torrent

FILENAMESIZE
A Star is Born 2018 1080p HC HDRip x264 [MW].mkv2.1 GB

Alternative Torrents for 'Star is Born'.

TORRENT NAME ADDED SIZE SEEDS PEERS HEALTH
1/15/2019 2.2 GB 7838 2687
1/15/2019 1.1 GB 6881 2625
1/15/2019 1.4 GB 993 236
1/15/2019 4.8 GB 663 96
1/15/2019 4.7 GB 314 174
1/15/2019 4 GB 296 42
1/15/2019 4.7 GB 193 44
1/16/2019 2.1 GB 165 28
1/15/2019 4.7 GB 161 27
1/15/2019 3.6 GB 127 53
1/15/2019 1.1 GB 85 18
1/15/2019 1.6 GB 51 17
1/15/2019 1.6 GB 43 19
1/15/2019 1.6 GB 40 8
1/16/2019 2.1 GB 28 24
Knowing Brother Episode 72 | Babydolls | Zubehör