Warning! Do NOT Download Without a VPN!
Your IP Address is 37.1.205.15.   Location is Netherlands
Your Internet Provider and Government can track your download activities! Hide your IP ADDRESS with a VPN!
We strongly recommend using a VPN service to anonymize your torrent downloads. It's FREE!
START YOUR FREE TRIAL NOW!

[1337xHD Com] A Star Is Born (2018) English 1080p HC HDRip X264 AAC 1 3GB KSub-1337xHD

Torrent Details

[1337xHD Com] A Star Is Born (2018) English 1080p HC HDRip x264 AAC 1 3GB KSub-1337xHD

NAME
[1337xHD Com] A Star Is Born (2018) English 1080p HC HDRip x264 AAC 1 3GB KSub-1337xHD.torrent
CATEGORY
Movies
INFOHASH
6281050357960588156d6d34a193e73ed72cbb97
SIZE
1.3 GB in 1 file
ADDED
Uploaded on 15-11-2018 by our crawler pet called "Spidey".
SWARM
0 seeders & 0 peers
RATING
No votes yet.

Please login to vote for this torrent.


Description

http://hdfilmboss.mobi/
http://1337xhd.com/



Official Website http://hdfilmboss.mobi/
Official Website http://1337xhd.com/



General
Format : Matroska
Format version : Version 4
File size : 1.31 GiB
Duration : 2 h 15 min
Overall bit rate : 1 382 kb/s
Movie name : HDFilmBoss.Mobi
Encoded date : UTC 2018-11-15 19:38:04
Writing application : mkvmerge v28.2.0 ('The Awakening') 64-bit
Writing library : libebml v1.3.6 + libmatroska v1.4.9

Video
ID : 1
Format : AVC
Format/Info : Advanced Video Codec
Format profile : [email protected]
Format settings : CABAC / 5 Ref Frames
Format settings, CABAC : Yes
Format settings, RefFrames : 5 frames
Codec ID : V_MPEG4/ISO/AVC
Duration : 2 h 15 min
Bit rate : 1 280 kb/s
Width : 1 920 pixels
Height : 1 072 pixels
Display aspect ratio : 16:9
Frame rate mode : Constant
Frame rate : 30.000 FPS
Color space : YUV
Chroma subsampling : 4:2:0
Bit depth : 8 bits
Scan type : Progressive
Bits/(Pixel*Frame) : 0.021
Stream size : 1.19 GiB (91%)
Title : WWW.1337xHD.Com
Writing library : x264 core 148 r2795 aaa9aa8
Default : Yes
Forced : No

Audio
ID : 2
Format : AAC LC
Format/Info : Advanced Audio Codec Low Complexity
Codec ID : A_AAC-2
Duration : 2 h 15 min
Bit rate : 128 kb/s
Channel(s) : 2 channels
Channel layout : L R
Sampling rate : 44.1 kHz
Frame rate : 43.066 FPS (1024 SPF)
Compression mode : Lossy
Stream size : 124 MiB (9%)
Title : 1337xHD.Com
Default : Yes
Forced : No










Discussion

Comments 0

Post Your Comment

Files in this torrent

FILENAMESIZE
[1337xHD.Com] A Star Is Born (2018) English 1080p HC HDRip x264 AAC 1.3GB KSub-1337xHD.mkv1.3 GB

Alternative Torrents for 'Star Is Born English AAC GB KSub-xHD'.

TORRENT NAME ADDED SIZE SEEDS PEERS HEALTH
1/15/2019 2.2 GB 7838 2687
1/15/2019 1.1 GB 6881 2625
1/10/2019 5.3 GB 5494 648
Today 3.6 GB 4351 1052
1/17/2019 3.1 GB 2533 2074
Yesterday 390 MB 2150 499
Yesterday 1.5 GB 1245 354
Yesterday 404 MB 1183 393
1/15/2019 1.4 GB 993 236
Yesterday 1.5 GB 772 427
Yesterday 284 MB 746 252
1/15/2019 4.8 GB 663 96
1/17/2019 1 GB 619 638
Today 2.3 GB 602 558
Today 2 GB 601 335
leapfrog geo | Damsel Assistir Damsel 720p Dublado/Legendado Online Samuel Alabaster (Robert Pattinson), um rico pioneiro, aventura-se pela remota fronteira dos EUA para se casar com o amor de sua vida, Penelope (Mia Wasikowska). Enquanto Samuel atravessa o Velho Oeste com um bêbado chamado Parson Henry (David Zellner) e um minicavalo chamado Butterscotch, sua jornada vai se tornando traiçoeira, apagando as linhas divisórias entre herói, ... | General Discussions