Warning! Do NOT Download Without a VPN!
Your IP Address is 37.1.205.15.   Location is Netherlands
Your Internet Provider and Government can track your download activities! Hide your IP ADDRESS with a VPN!
We strongly recommend using a VPN service to anonymize your torrent downloads. It's FREE!
START YOUR FREE TRIAL NOW!

A Star Is Born 2018 720p HDCAM X264 [MW]

Torrent Details

A Star Is Born 2018 720p HDCAM x264 [MW]

NAME
A Star Is Born 2018 720p HDCAM x264 [MW].torrent
CATEGORY
Movies
INFOHASH
6bf0a79f5ac1a99dbf528a327d2abbb12473c193
SIZE
1.3 GB in 1 file
ADDED
Uploaded on 10-10-2018 by our crawler pet called "Spidey".
SWARM
0 seeders & 0 peers
RATING
No votes yet.

Please login to vote for this torrent.


Description

General
Format : Matroska
Format version : Version 4 / Version 2
File size : 1.29 GiB
Duration : 2 h 1 min
Overall bit rate : 1 527 kb/s

Video
ID : 1
Format : AVC
Format/Info : Advanced Video Codec
Format profile : [email protected]
Format settings : CABAC / 4 Ref Frames
Format settings, CABAC : Yes
Format settings, RefFrames : 4 frames
Codec ID : V_MPEG4/ISO/AVC
Duration : 2 h 1 min
Bit rate : 1 400 kb/s
Width : 1 278 pixels
Height : 534 pixels
Display aspect ratio : 2.40:1
Frame rate mode : Constant
Frame rate : 29.970 (30000/1001) FPS
Color space : YUV
Chroma subsampling : 4:2:0
Bit depth : 8 bits
Scan type : Progressive
Bits/(Pixel*Frame) : 0.068
Stream size : 1.18 GiB (91%)
Writing library : x264 core 155 r2901 7d0ff22
Default : Yes
Forced : No

Audio
ID : 2
Format : AAC
Format/Info : Advanced Audio Codec
Format profile : LC
Codec ID : A_AAC-2
Duration : 2 h 1 min
Bit rate : 128 kb/s
Channel(s) : 2 channels
Channel positions : Front: L R
Sampling rate : 48.0 kHz
Frame rate : 46.875 FPS (1024 SPF)
Compression mode : Lossy
Stream size : 111 MiB (8%)
Language : English
Default : Yes
Forced : No


Click To Enlarge Image






Discussion

Comments 0

Post Your Comment

Files in this torrent

FILENAMESIZE
A Star Is Born 2018 720p HDCAM x264 [MW].mkv1.3 GB

Alternative Torrents for 'Star Is Born HDCAM'.

TORRENT NAME ADDED SIZE SEEDS PEERS HEALTH
10/9/2018 2.4 GB 0 0
10/9/2018 2.4 GB 0 0
10/9/2018 980 MB 0 0
10/9/2018 2.4 GB 0 0
10/9/2018 2.4 GB 0 0
10/10/2018 1.3 GB 0 0
10/10/2018 1.3 GB 0 0
10/11/2018 1.3 GB 0 0
11/21/2018 2.4 GB 0 0
Nordlicht - Mörder ohne Reue | Bandes dessinées | Gravel: Colorado River (Milestone S.r.l.) (ENG/MULTi7) [L] - CODEX Подробнее... Залито: 06-06-2018 14:36 (4116 просмотров) Gravel: Colorado River (Milestone S.r.l.) (ENG/MULTi7) [L] - CODEX Горячие новинки Новый эпизод Off-road Masters проходит в обжигающе жаркой аризонской пустыне. Gravel Channel возвращается в США на гонки Wild Rush, трасса для которых проходит по знаменитой дамбе на реке Colorado... Раздают: 0 Качают: 0 Размер: 15.58GB