Warning! Do NOT Download Without a VPN!
Your IP Address is 37.1.205.15.   Location is Netherlands
Your Internet Provider and Government can track your download activities! Hide your IP ADDRESS with a VPN!
We strongly recommend using a VPN service to anonymize your torrent downloads. It's FREE!
START YOUR FREE TRIAL NOW!

18+ A Star Is Born 2018 UNCENSORED Movies HD Cam X264 AAC With Sample ☻rDX☻

Torrent Details

18+ A Star Is Born 2018 UNCENSORED Movies HD Cam x264 AAC with Sample ☻rDX☻

NAME
18+ A Star Is Born 2018 UNCENSORED Movies HD Cam x264 AAC with Sample ☻rDX☻.torrent
CATEGORY
Movies
INFOHASH
bd5901f2c94006722f00f07b406fff33f6ee41ce
SIZE
705 MB in 0 files
ADDED
Uploaded on 10-10-2018 by our crawler pet called "Spidey".
SWARM
0 seeders & 0 peers
RATING
No votes yet.

Please login to vote for this torrent.


Description

18+ A Star Is Born 2018 UNCENSORED Movies HD Cam x264 AAC with Sample ☻rDX☻====================================================

SCREEN SHOTS:



or

http://iphonehosting.eu/2018/10/wifi/1.html

File size : 699 MiB
Duration : 2 h 1 min
Overall bit rate mode : Constant
Overall bit rate : 805 kb/s
Movie name : A Star Is Born 2018 Movies HD Cam x264 AAC ☻rDX☻
Encoded date : UTC 2018-10-10 04:06:16
Writing application : mkvmerge v6.5.0 ('Isn't she lovely') built on Oct 20 2013 12:50:05
Writing library : libebml v1.3.0 + libmatroska v1.4.1

Video
ID : 2
Format : AVC
Format/Info : Advanced Video Codec
Format profile : [email protected]
Format settings, CABAC : Yes
Format settings, ReFrames : 2 frames
Format settings, GOP : M=1, N=12
Codec ID : V_MPEG4/ISO/AVC
Duration : 2 h 1 min
Bit rate mode : Constant
Bit rate : 742 kb/s
Width : 700 pixels
Height : 294 pixels
Display aspect ratio : 2.40:1
Frame rate mode : Constant
Frame rate : 29.970 (30000/1001) FPS
Color space : YUV
Chroma subsampling : 4:2:0
Bit depth : 8 bits
Scan type : Progressive
Bits/(Pixel*Frame) : 0.120
Stream size : 629 MiB (90%)
Title : ☻rDX☻
Default : Yes
Forced : No

Audio
ID : 1
Format : MPEG Audio
Format version : Version 1
Format profile : Layer 3
Mode : Joint stereo
Mode extension : MS Stereo
Codec ID : A_MPEG/L3
Codec ID/Hint : MP3
Duration : 2 h 1 min
Bit rate mode : Constant
Bit rate : 64.0 kb/s
Channel(s) : 2 channels
Sampling rate : 44.1 kHz
Compression mode : Lossy
Stream size : 55.6 MiB (8%)
Title : ☻rDX☻
Default : Yes
Forced : No

http://www.imdb.com/title/tt1517451

Discussion

Comments 0

Post Your Comment

Torrent Files (Unavailable)

Please check back later to get a list of all files included in this torrent.

Alternative Torrents for 'Star Is Born UNCENSORED Movies HD Cam AAC with Sample ☻rDX☻'.

There are no alternative torrents found.
Citröen HY (H van) Extra long 1969 | Material Handling | Nerf War: First Person Shooter 9