Warning! Do NOT Download Without a VPN!
Your IP Address is 37.1.205.15.   Location is Netherlands
Your Internet Provider and Government can track your download activities! Hide your IP ADDRESS with a VPN!
We strongly recommend using a VPN service to anonymize your torrent downloads. It's FREE!
START YOUR FREE TRIAL NOW!

A Star Is Born (2018) 720p HDCAMRip X264 AAC 800MB - [MovCr]

Torrent Details

A Star Is Born (2018) 720p HDCAMRip x264 AAC 800MB - [MovCr]

NAME
A Star Is Born (2018) 720p HDCAMRip x264 AAC 800MB - [MovCr].torrent
CATEGORY
Movies
INFOHASH
31e50aa6b5540f3bc7b1da4010f33a4f71f6eecd
SIZE
833 MB in 1 file
ADDED
Uploaded on 09-10-2018 by our crawler pet called "Spidey".
SWARM
0 seeders & 0 peers
RATING
No votes yet.

Please login to vote for this torrent.


Description

Our Site http://movcr.cc

A Star Is Born (2018) 720p HDCAMRip x264 AAC 800MB - [MovCr]


http://www.imdb.com/title/tt1517451/



General
Unique ID : 116408311129324701215177953197496890258 (0x57936CDB156A3C31F7B8AD66208E7392)
Complete name : www.MovCr.cc - A Star Is Born (2018) 720p HDCAMRip x264 AAC 800MB - [MovCr].mkv
Format : Matroska
Format version : Version 4 / Version 2
File size : 833 MiB
Duration : 2 h 1 min
Overall bit rate : 959 kb/s
Movie name : www.MovCr.cc
Encoded date : UTC 2018-10-09 16:31:22
Writing application : mkvmerge v26.0.0 ('In The Game') 64-bit
Writing library : libebml v1.3.6 + libmatroska v1.4.9

Video
ID : 1
Format : AVC
Format/Info : Advanced Video Codec
Format profile : [email protected]
Format settings : CABAC / 4 Ref Frames
Format settings, CABAC : Yes
Format settings, RefFrames : 4 frames
Codec ID : V_MPEG4/ISO/AVC
Duration : 2 h 1 min
Bit rate : 911 kb/s
Width : 1 280 pixels
Height : 536 pixels
Display aspect ratio : 2.40:1
Frame rate mode : Constant
Frame rate : 25.000 FPS
Color space : YUV
Chroma subsampling : 4:2:0
Bit depth : 8 bits
Scan type : Progressive
Bits/(Pixel*Frame) : 0.053
Stream size : 789 MiB (95%)
Title : www.MovCr.cc
Writing library : x264 core 148 r2643 5c65704
Encoding settings : cabac=1 / ref=1 / deblock=1:0:0 / analyse=0x3:0x3 / me=dia / subme=1 / psy=1 / psy_rd=1.00:0.00 / mixed_ref=0 / me_range=16 / chroma_me=1 / trellis=0 / 8x8dct=1 / cqm=0 / deadzone=21,11 / fast_pskip=1 / chroma_qp_offset=0 / threads=12 / lookahead_threads=2 / sliced_threads=0 / nr=0 / decimate=1 / interlaced=0 / bluray_compat=0 / constrained_intra=0 / bframes=3 / b_pyramid=2 / b_adapt=1 / b_bias=0 / direct=1 / weightb=1 / open_gop=0 / weightp=1 / keyint=250 / keyint_min=25 / scenecut=40 / intra_refresh=0 / rc=abr / mbtree=0 / bitrate=911 / ratetol=1.0 / qcomp=0.60 / qpmin=0 / qpmax=69 / qpstep=4 / ip_ratio=1.40 / pb_ratio=1.30 / aq=1:1.00
Default : Yes
Forced : No

Audio
ID : 2
Format : AAC
Format/Info : Advanced Audio Codec
Format profile : LC
Codec ID : A_AAC-2
Duration : 2 h 1 min
Bit rate : 48.0 kb/s
Channel(s) : 1 channel
Channel positions : Front: C
Sampling rate : 44.1 kHz
Frame rate : 43.066 FPS (1024 SPF)
Compression mode : Lossy
Delay relative to video : -46 ms
Stream size : 41.7 MiB (5%)
Title : www.MovCr.cc
Language : English
Default : Yes
Forced : No









Discussion

Comments 0

Post Your Comment

Files in this torrent

FILENAMESIZE
www.MovCr.cc - A Star Is Born (2018) 720p HDCAMRip x264 AAC 800MB - [MovCr].mkv832.6 MB

Alternative Torrents for 'Star Is Born HDCAMRip AAC MB'.

TORRENT NAME ADDED SIZE SEEDS PEERS HEALTH
1/15/2019 2.2 GB 7838 2687
1/15/2019 1.1 GB 6881 2625
1/10/2019 5.3 GB 5494 648
Today 3.6 GB 4351 1052
1/17/2019 3.1 GB 2533 2074
Yesterday 390 MB 2150 499
Yesterday 1.5 GB 1245 354
Yesterday 404 MB 1183 393
1/15/2019 1.4 GB 993 236
Yesterday 1.5 GB 772 427
Yesterday 284 MB 746 252
1/15/2019 4.8 GB 663 96
1/17/2019 1 GB 619 638
Today 2.3 GB 602 558
Today 2 GB 601 335
The Fox Family | A. MICHELSEN 1970 Christmas Spoon 6.5 Denmark Sterling Silver~Goldwash~Enamel | وثائقي